"Untitled Post" - Views: 117 · Hits: 117 - Type: Public

Video
ID : 1
Format : AVC
Format/Info: Advanced Video Codec
Format profile : [email protected]
Format settings: CABAC / 3 Ref Frames
Format settings, CABAC : Yes
Format settings, RefFrames : 3 frames
Codec ID : V_MPEG4/ISO/AVC
Duration : 1 h 53 min
Bit rate mode: Variable
Bit rate : 3 160 kb/s
Maximum bit rate : 4 740 kb/s
Width: 1 920 pixels
Height : 1 080 pixels
Display aspect ratio : 16:9
Frame rate mode: Constant
Frame rate : 23.976 (24000/1001) FPS
Color space: YUV
Chroma subsampling : 4:2:0
Bit depth: 8 bits
Scan type: Progressive
Bits/(Pixel*Frame) : 0.064
Stream size: 2.48 GiB (87%)
Default: Yes
Forced : No

Audio
ID : 2
Format : E-AC-3
Format/Info: Enhanced Audio Coding 3
Format profile : E-AC-3+Atmos / E-AC-3
Codec ID : A_EAC3
Duration : 1 h 52 min
Bit rate mode: Constant
Bit rate : 448 kb/s
Channel(s) : 15 objects / 6 channels
Channel positions: 15 objects / Front: L C R, Side: L R, LFE
Sampling rate: 48.0 kHz
Frame rate : 187.500 FPS (256 SPF)
Compression mode : Lossy
Stream size: 361 MiB (12%)
Title: English
Language : English
Service kind : Complete Main
Default: Yes
Forced : No

ext #0           : UTF-8
Language          : en
Text #1           : UTF-8
Language          : ar
Text #2           : UTF-8
Language          : da
Text #3           : UTF-8
Language          : de
Text #4           : UTF-8
Language          : el
Text #5           : UTF-8
Language          : es
Text #6           : UTF-8
Language          : es
Text #7           : UTF-8
Language          : fi
Text #8           : UTF-8
Language          : fr
Text #9           : UTF-8
Language          : he
Text #10           : UTF-8
Language          : it
Text #11           : UTF-8
Language          : ja
Text #12           : UTF-8
Language          : ko
Text #13           : UTF-8
Language          : nb
Text #14           : UTF-8
Language          : nl
Text #15           : UTF-8
Language          : pl
Text #16           : UTF-8
Language          : pt
Text #17           : UTF-8
Language          : pt
Text #18           : UTF-8
Language          : ro
Text #19           : UTF-8
Language          : sv

Text #20           : UTF-8
Language          : th ---Thai ka

Text #21           : UTF-8
Language          : tr
Text #22           : UTF-8
Language          : zh
Text #23           : UTF-8
Language          : zh