"Untitled Post" - Views: 19 · Hits: 19 - Type: Public

Format: Matroska
Format version              : Version 4 / Version 2
File size                   : 4.44 GiB
Duration                    : 2 h 7 min
Overall bit rate            : 4 984 kb/s
Movie name                  : Hereditary.2018.1080p.WEB-DL.DD5.1.H264-FGT
Encoded date                : UTC 2018-10-04 11:55:55
Writing application         : mkvmerge v17.0.0 ( Be Ur Friend ) 64-bit
Writing library             : libebml v1.3.5 + libmatroska v1.4.8
Cover                       : Yes
Attachments                 : small_cover.jpg / small_cover_land.jpg / cover.jpg / cover_land.jpg

Video
ID                          : 1
Format                      : AVC
Format/Info                 : Advanced Video Codec
Format profile              : [email protected]
Format settings, CABAC      : Yes
Format settings, ReFrames   : 4 frames
Codec ID                    : V_MPEG4/ISO/AVC
Duration                    : 2 h 7 min
Bit rate                    : 4 582 kb/s
Width                       : 1 920 pixels
Height                      : 952 pixels
Display aspect ratio        : 2.017
Frame rate mode             : Constant
Frame rate                  : 23.976 (23976/1000) FPS
Color space                 : YUV
Chroma subsampling          : 4:2:0
Bit depth                   : 8 bits
Scan type                   : Progressive
Bits/(Pixel*Frame)          : 0.105
Stream size                 : 4.09 GiB (92%)
Title                       : Hereditary.2018.1080p.WEB-DL.DD5.1.H264-FGT
Language                    : English
Default                     : Yes
Forced                      : No
Color range                 : Limited
Color primaries             : BT.709
Transfer characteristics    : BT.709
Matrix coefficients         : BT.709

Audio
ID                          : 2
Format                      : AC-3
Format/Info                 : Audio Coding 3
Mode extension              : CM (complete main)
Format settings, Endianness : Big
Codec ID                    : A_AC3
Duration                    : 2 h 7 min
Bit rate mode               : Constant
Bit rate                    : 384 kb/s
Channel(s)                  : 6 channels
Channel positions           : Front: L C R, Side: L R, LFE
Sampling rate               : 48.0 kHz
Frame rate                  : 31.250 FPS (1536 spf)
Compression mode            : Lossy
Delay relative to video     : -42 ms
Stream size                 : 351 MiB (8%)
Title                       : Hereditary.2018.1080p.WEB-DL.DD5.1.H264-FGT
Language                    : English
Default                     : Yes
Forced                      : No

Text #1
ID                          : 3
Format                      : UTF-8
Codec ID                    : S_TEXT/UTF8
Codec ID/Info               : UTF-8 Plain Text
Duration                    : 2 h 0 min
Bit rate                    : 33 b/s
Count of elements           : 1018
Stream size                 : 29.5 KiB (0%)
Language                    : English
Default                     : Yes
Forced                      : No

Text #2
ID                          : 4
Format                      : PGS
Muxing mode                 : zlib
Codec ID                    : S_HDMV/PGS
Codec ID/Info               : Picture based subtitle format used on BDs/HD-DVDs
Duration                    : 2 h 2 min
Bit rate                    : 36.7 kb/s
Count of elements           : 2050
Stream size                 : 32.2 MiB (1%)
Language                    : Thai
Default                     : No
Forced                      : No